honor/荣耀 荣耀盒子网络机顶盒怎么样,开箱试用评测

邮寄地址我填的领导的单位!所以等我回家,开箱已经给领导完成了!她已经在看她的匹诺曹(好像这么叫)了!这个对一个家里电子设备有什么问题只会大声喊我的人来说太不可思议了!好奇问之!领导骄傲的说这个安装很简单的!也就那么几个插口!又不会插错!连上电视以后按照提示一步步来就好了啊!领导顺手把软件版本升级也完成了!安装完全傻瓜式的!所有人都应该没什么问题!非常易用!

honor/荣耀 荣耀盒子网络机顶盒怎么样,开箱试用评测

华为荣耀盒子外观采用镜面!非常漂亮!图片上看似很花,是我没有把保护膜撕掉!电源和其他盒子不同!不是用的5v,而是12v的电源!想来是为了更好的支持usb口上插移动硬盘!毕竟这是款可以上4k高清的盒子!想的很周到!

honor/荣耀 荣耀盒子网络机顶盒怎么样,开箱试用评测

小虽小,接口很全!av接口!老电视剧的必备啊!而且这个av接口也是spdif的接口!都上4k了,肯定要上功放的!各位观众一定会对上图中2个主机却有3个遥控器感到困惑吧!那是应为小白的遥控器各种不给力!不是不响应,就是串键!所以tb买了个学习型遥控器!所以小黑到家后特意测试了下!的确如宣传所说,全方位的!不用刻意把遥控器对准小黑!灵敏度还是满意的!小白小黑都是红外遥控的!差距怎么这么大啊!不由想起我的猫盒 !猫盒用的是蓝牙遥控!得到家里领导和少爷的一致好评!大冬天的在被窝里遥控就行了!手机遥控(我就想轻松窝在被窝里看电视,换台还要盯着看手机)根本不实用啊!再说手感,猫盒和小白的遥控器用的是纽扣电池,所以很薄,但是同样手感不好,小黑应为用的是7号电池,所以厚一些,但是采用圆弧型设计,握上去手感很好好!同样的,家里备7号电池总有备用,纽扣电池一般不会有!个人还是喜欢遥控器用7号电池!(包装里带有2节7号电池,厂家想的很周到。)

honor/荣耀 荣耀盒子网络机顶盒怎么样,开箱试用评测

有线网络比无线网络在稳定性方面还是略胜一筹的!荣耀盒子的lan接口非常值得称赞!旁边那个小白不就简配了!我有线没有试,应为小黑的无线跑的非常稳定!速度已达到我网络的最高!1080p的非常流畅!

honor/荣耀 荣耀盒子网络机顶盒怎么样,开箱试用评测

荣耀预装gitv。而且是正版的!那就很给力了!光腚总局动作很多!现在买盒子,还真怕变砖!有了正版,那就能保证有的看!

honor/荣耀 荣耀盒子网络机顶盒怎么样,开箱试用评测

专区是给我这样的懒人的准备的!省力!

honor/荣耀 荣耀盒子网络机顶盒怎么样,开箱试用评测

honor/荣耀 荣耀盒子网络机顶盒怎么样,开箱试用评测

4k高清播放器当然要有4k专区。非常清晰!但是我的是电信8兆的宽度!4k的高清看不了!卡顿严重!这个是网络决定的!盒子也没办法!为了实验4k高清,特意去网上下载了几部高清试机片。拷入u盘。用机器带的播放软件。

honor/荣耀 荣耀盒子网络机顶盒怎么样,开箱试用评测

honor/荣耀 荣耀盒子网络机顶盒怎么样,开箱试用评测

完美播放,响应迅速 MP4格式+编码格式: AVC+视频码率: 50000 kbps+视频帧率:29 fps+分 辨 率: 3840 x 2160+显示比率: 1.778音频流信息+编码格式: A_AAC/MPEG4/LC+音频码率: 384 kbps+声 道 数: 2 channels+采 样 数: 48000 Hz+音频位数: 0 bits身临其境的超逼真体验(生态微观)Hisense海信4K演示片[50mbps/1.2G]

honor/荣耀 荣耀盒子网络机顶盒怎么样,开箱试用评测

能播放,流畅,但是颜色完全不对,ts格式,不知道是不是解码不对。4K[迪拜Dubai]无与伦比的华丽璀璨3840×2160p+类型:三星4K UHDTV视频演示片+视频格式:TS+文件大小:655mb+视频编码:HEVC/H.265+PS: H265需要软、硬件支持才能播放。

honor/荣耀 荣耀盒子网络机顶盒怎么样,开箱试用评测

能播放,流畅,但是颜色完全不对,ts格式,不知道是不是解码不对。Samsung三星4K超清演示片. 2014米兰FTV时装秀,UHDTV.H265视频编码GeneralID : 0 (0x0)Complete name : D:\\4K123\\2014米兰FTV时装秀.tsFormat : MPEG-TSFile size : 950 MiBDuration : 2mn 35sOverall bit rate mode : ConstantOverall bit rate : 51.4 MbpsVideoID : 257 (0x101)Menu ID : 1 (0x1)Format : HEVCFormat/Info : High Efficiency Video CodingCodec ID : 36Duration : 2mn 34sBit rate : 48.7 MbpsStream size : 896 MiB (94%)AudioID : 258 (0x102)Menu ID : 1 (0x1)Format : AACFormat/Info : Advanced Audio CodecFormat version : Version 4Format profile : LCMuxing mode : ADTSCodec ID : 15Duration : 2mn 34sBit rate mode : VariableBit rate : 129 KbpsChannel(s) : 2 channelsChannel positions : Front: L RSampling rate : 48.0 KHzCompression mode : LossyStream size : 2.37 MiB (0%)

honor/荣耀 荣耀盒子网络机顶盒怎么样,开箱试用评测

完美播放,响应迅速 MP4格式[少女时代] 4K MVGirls.Generation.Oh.4in1.201002.HDTV.x264.2160p.120fps.DTSES

honor/荣耀 荣耀盒子网络机顶盒怎么样,开箱试用评测

honor/荣耀 荣耀盒子网络机顶盒怎么样,开箱试用评测

说实话,正版的资源当然少。不过盒子回家当然会装其他应用。一直纠结4g存储空间够不够用。等装完应用,完全够用!首先u盘安装沙发管家,其他就简单了,沙发管家里直接安装,非常方便。我没有root,暂时不需要。够用了。应用都试了下!正常播放!

再次感谢沃德盛世给我这次机会!经过几天测试。总体对小黑很满意!

很遗憾的是荣耀盒子还是用的红外遥控,当然,这也是成本控制的结果,蓝牙的盒子这个价格的很少很少。不过我真的想手不伸出被窝遥控!既然号称4k盒子,那希望华为的工程师们解决一下ts格式的片子不能正常播放的问题,应为懒,我没有装xmbc,希望能在下一个盒子版本升级时能看到完美解决!盒子工作时外壳略微有发热,还算好!看了下荣耀盒子是没有散热孔的!冬天时没问题的。不知道夏天会有怎么样的表现!对于尺寸的关心远远没有对于稳定性的关心啊!手机遥控,无线显示,童锁控制都是很好的功能,但是对于我而言,没什么用,所以没有详细测试,略微看了下而已!usb接口只有一个,对于想插鼠标和移动硬盘的朋友可能造成困扰。

通过这次对比,小白正式下岗,小黑上岗!对于我这样只想轻松看片子的人来说,荣耀盒子好用够用。结合300块不到的价格!不错的选择!

标签